Torrent details for "Jurassic.World.Fallen.Kingdom.2018.BRRip.XviD.B4ND1T69"

Loading...
Torrent details
Cover
Download
Torrent rating (0 rated)
Controls:
Category:
Language:
English English
Total Size:
1.54 GB
Info Hash:
b0bfd96c44be7797ef57c4fbb9b6c4f8ca1f2469
Added By:
Added:  
15-03-2019 18:18 (edited 15-03-2019 18:19) by B4ND1T69:_trusted_uploader::_sitefriend::_male::_boob::_junkie:
Views:
108
Health:
Seeds:
5
Leechers:
3
Completed:
350

File List : 
Genre:
Action, Adventure, Sci-Fi
Runtime:
128 min    -    Rating: 7.4
Director:
Plot:
Four years after the Jurassic World theme park was closed down, Owen and Claire return to Isla Nublar to save the dinosaurs when they learn that a once dormant volcano on the island is active and is threatening to extinguish all life there. Along the way, Owen sets out to find Blue, his lead raptor, and discovers a conspiracy that could disrupt the natural order of the entire planet. Life has found a way, again.

Description
Jurassic.World.Fallen.Kingdom.2018.BRRip.XviD.B4ND1T69



Director: J.A. Bayona
Writers: Colin Trevorrow, Derek Connolly
Stars: Bryce Dallas Howard, Chris Pratt, Ted Levine

Plot/Story:
Four years after the Jurassic World theme park was closed down, Owen and Claire return to Isla Nublar to save the dinosaurs when they learn that a once dormant volcano on the island is active and is threatening to extinguish all life there. Along the way, Owen sets out to find Blue, his lead raptor, and discovers a conspiracy that could disrupt the natural order of the entire planet. Life has found a way, again.

General
Complete name               : Jurassic.World.Fallen.Kingdom.2018.BRRip.XviD.B4ND1T69.avi
Format                      : AVI
Format/Info                 : Audio Video Interleave
File size                   : 1.54 GiB
Duration                    : 2 h 8 min
Overall bit rate            : 1 722 kb/s
Subtitles                   : Yes...Included(HI)

Video
ID                          : 0
Format                      : MPEG-4 Visual
Format profile              : Advanced [email protected]
Format settings, BVOP       : 2
Format settings, QPel       : Yes
Format settings, GMC        : No warppoints
Format settings, Matrix     : Default (H.263)
Codec ID                    : XVID
Codec ID/Hint               : XviD
Duration                    : 2 h 8 min
Bit rate                    : 1 581 kb/s
Width                       : 720 pixels
Height                      : 304 pixels
Display aspect ratio        : 2.35:1
Frame rate                  : 23.976 (24000/1001) FPS
Original frame rate         : 23.976 (23976/1000) FPS
Color space                 : YUV
Chroma subsampling          : 4:2:0
Bit depth                   : 8 bits
Scan type                   : Progressive
Compression mode            : Lossy
Bits/(Pixel*Frame)          : 0.301
Stream size                 : 1.42 GiB (92%)
Writing library             : XviD 64

Audio
ID                          : 1
Format                      : MPEG Audio
Format version              : Version 1
Format profile              : Layer 3
Codec ID                    : 55
Codec ID/Hint               : MP3
Duration                    : 2 h 8 min
Source duration             : 2 h 8 min
Bit rate mode               : Constant
Bit rate                    : 128 kb/s
Channel(s)                  : 2 channels
Sampling rate               : 48.0 kHz
Compression mode            : Lossy
Stream size                 : 117 MiB (7%)
Alignment                   : Split accross interleaves
Interleave, duration        : 24  ms (0.58 video frame)

Screenshots:










Please Seed For As Long As Possible
Or At Least 1:1 Ratio...Thanks
Enjoy Peeps

  User comments

No comments have been posted yet.


Post anonymous comment
:) :( :D :P :-) B) 8o :? 8) ;) :-* :-( :| O:-D :-@ :o) brb :warn :help :bad :love :idea :bomb :!


CAPTCHA Image