Torrent details for "Sicario.Day.Of.The.Soldado.2018.BRRip.XviD.B4ND1T69"

Loading...
Torrent details
Cover
Download
Torrent rating (0 rated)
Controls:
Category:
Language:
English English
Total Size:
1.17 GB
Info Hash:
25f673cbefb3e88244b62e7c14253197a677eed4
Added By:
Added:  
15-03-2019 18:25
Views:
105
Health:
Seeds:
4
Leechers:
3
Completed:
200

File List : 
Genre:
Action, Crime, Drama, Thriller
Runtime:
122 min    -    Rating: 7.6
Plot:
n/A

Description
Sicario.Day.Of.The.Soldado.2018.BRRip.XviD.B4ND1T69



Director: Stefano Sollima
Writer: Taylor Sheridan
Stars: Benicio Del Toro, Josh Brolin, Isabela Moner

Plot/Story:
The drug war on the U.S.-Mexico border has escalated as the cartels have begun trafficking terrorists across the US border. To fight the war, federal agent Matt Graver re-teams with the mercurial Alejandro.

General
Complete name               : Sicario.Day.Of.The.Soldado.2018.BRRip.XviD.B4ND1T69.avi
Format                      : AVI
Format/Info                 : Audio Video Interleave
File size                   : 1.17 GiB
Duration                    : 2 h 2 min
Overall bit rate            : 1 372 kb/s
Subtitles                   : Yes, Hardcoded for non-English parts + File Included(HI)

Video
ID                          : 0
Format                      : MPEG-4 Visual
Format profile              : Advanced [email protected]
Format settings, BVOP       : 2
Format settings, QPel       : No
Format settings, GMC        : No warppoints
Format settings, Matrix     : Default (H.263)
Codec ID                    : XVID
Codec ID/Hint               : XviD
Duration                    : 2 h 2 min
Bit rate                    : 1 231 kb/s
Width                       : 720 pixels
Height                      : 304 pixels
Display aspect ratio        : 2.35:1
Frame rate                  : 23.976 (24000/1001) FPS
Color space                 : YUV
Chroma subsampling          : 4:2:0
Bit depth                   : 8 bits
Scan type                   : Progressive
Compression mode            : Lossy
Bits/(Pixel*Frame)          : 0.235
Stream size                 : 1.05 GiB (90%)
Writing library             : XviD 64

Audio
ID                          : 1
Format                      : MPEG Audio
Format version              : Version 1
Format profile              : Layer 3
Codec ID                    : 55
Codec ID/Hint               : MP3
Duration                    : 2 h 2 min
Bit rate mode               : Constant
Bit rate                    : 128 kb/s
Channel(s)                  : 2 channels
Sampling rate               : 48.0 kHz
Compression mode            : Lossy
Stream size                 : 112 MiB (9%)
Alignment                   : Aligned on interleaves
Interleave, duration        : 24  ms (0.58 video frame)

Screenshots:










Please Seed For As Long As Possible
Or At Least 1:1 Ratio...Thanks
Enjoy Peeps

  User comments

No comments have been posted yet.


Post anonymous comment
:) :( :D :P :-) B) 8o :? 8) ;) :-* :-( :| O:-D :-@ :o) brb :warn :help :bad :love :idea :bomb :!


CAPTCHA Image