Torrent details for "The.Lost.Boys.1987.BRRip.XviD.B4ND1T69"

Loading...
Torrent details
Cover
Download
Torrent rating (0 rated)
Controls:
Category:
Language:
English English
Total Size:
1.27 GB
Info Hash:
c588d8719ea7efa4b6c706416d149615bca0e542
Added By:
Added:  
15-03-2019 19:12
Views:
169
Health:
Seeds:
6
Leechers:
3
Completed:
50

File List : 
Title:
Genre:
Comedy, Horror
Runtime:
97 min    -    Rating: 7.3
Plot:
A mother and her two sons move to a small coast town in California. The town is plagued by bikers and some mysterious deaths. The younger boy makes friends with two other boys who claim to be vampire hunters while the older boy is drawn into the gang of bikers by a beautiful girl. The older boy starts sleeping days and staying out all night while the younger boy starts getting into trouble because of his friends' obsession.

Description
The.Lost.Boys.1987.BRRip.XviD.B4ND1T69



Director: Joel Schumacher
Writers: Jan Fischer (story) (as Janice Fischer), James Jeremias (story)
Stars: Jason Patric, Corey Haim, Dianne Wiest, Kiefer Sutherland

Plot/Story:
A mother and her two sons move to a small coast town in California. The town is plagued by bikers and some mysterious deaths. The younger boy makes friends with two other boys who claim to be vampire hunters while the older boy is drawn into the gang of bikers by a beautiful girl. The older boy starts sleeping days and staying out all night while the younger boy starts getting into trouble because of his friends' obsession.

General
Complete name               : The.Lost.Boys.1987.BRRip.XviD.B4ND1T69.avi
Format                      : AVI
Format/Info                 : Audio Video Interleave
Format profile              : OpenDML
File size                   : 1.27 GiB
Duration                    : 1 h 37 min
Overall bit rate            : 1 859 kb/s
Writing application         : Lavf54.63.104
Subtitles                   : Yes...Included(HI)

Video
ID                          : 0
Format                      : MPEG-4 Visual
Format profile              : [email protected]
Format settings, BVOP       : No
Format settings, QPel       : No
Format settings, GMC        : No warppoints
Format settings, Matrix     : Default (H.263)
Codec ID                    : XVID
Codec ID/Hint               : XviD
Duration                    : 1 h 37 min
Bit rate                    : 1 716 kb/s
Width                       : 720 pixels
Height                      : 304 pixels
Display aspect ratio        : 2.35:1
Frame rate                  : 23.976 (24000/1001) FPS
Original frame rate         : 23.976 (23976/1000) FPS
Color space                 : YUV
Chroma subsampling          : 4:2:0
Bit depth                   : 8 bits
Scan type                   : Progressive
Compression mode            : Lossy
Bits/(Pixel*Frame)          : 0.327
Stream size                 : 1.17 GiB (92%)
Writing library             : XviD 64

Audio
ID                          : 1
Format                      : MPEG Audio
Format version              : Version 1
Format profile              : Layer 3
Mode                        : Joint stereo
Mode extension              : MS Stereo
Codec ID                    : 55
Codec ID/Hint               : MP3
Duration                    : 1 h 37 min
Bit rate mode               : Constant
Bit rate                    : 128 kb/s
Channel(s)                  : 2 channels
Sampling rate               : 48.0 kHz
Compression mode            : Lossy
Stream size                 : 89.2 MiB (7%)
Alignment                   : Aligned on interleaves
Interleave, duration        : 24  ms (0.58 video frame)
Interleave, preload duratio : 120  ms

Screenshots:











Please Seed For As Long As Possible
Or At Least 1:1 Ratio...Thanks
Enjoy Peeps

Similar torrents

  No similar torrents were found.

  User comments

No comments have been posted yet.


Post anonymous comment
:) :( :D :P :-) B) 8o :? 8) ;) :-* :-( :| O:-D :-@ :o) brb :warn :help :bad :love :idea :bomb :!


CAPTCHA Image