Torrent details for "Formula.1.F1.Chinese.Grand.Prix.04.14.2019.RACE.1080p.WEB-WDTeam"

Loading...
Torrent details
Cover
Download
Torrent rating (1 rated)
Controls:
Category:
Language:
English English
Total Size:
4.28 GB
Info Hash:
bc345c8019838d5cdd7b85a548485b2371b52e0f
Added By:
Added:  
14-04-2019 11:09 (edited 14-04-2019 11:55) by Snowtiq
Views:
862
Health:
Seeds:
153
Leechers:
7
Completed:
1,258

File List : 
Thanks for rating :
last0ne (4),

Title:
Formula 1 (2019)
Genre:
Sport
Runtime:
n/A    -    Rating: n/A
Director:
n/A
Cast:
n/A
Plot:
n/A

Description
Formula.1.F1.Chinese.Grand.Prix.04.14.2019.RACE.1080p.WEB-WDTeam





F1 Info

F1:Formula1:ChinaRace

Format : Matroska
Format version : Version 4 / Version 2
File size : 4.28 GiB
Duration : 2h 3mn
Overall bit rate : 4 962 Kbps
Encoded date : UTC 2019-04-14 08:27:30
Writing application : mkvmerge v9.3.1 ('Mask Machine') 64bit
Writing library : libebml v1.3.4 + libmatroska v1.4.5

Video
ID : 1
Format : AVC
Format/Info : Advanced Video Codec
Format profile : [email protected]
Format settings, CABAC : Yes
Format settings, ReFrames : 4 frames
Codec ID : V_MPEG4/ISO/AVC
Duration : 2h 3mn
Bit rate : 4 911 Kbps
Width : 1 920 pixels
Height : 1 080 pixels
Display aspect ratio : 16:9
Frame rate mode : Constant
Frame rate : 25.000 fps
Color space : YUV
Chroma subsampling : 4:2:0
Bit depth : 8 bits
Scan type : Progressive
Bits/(Pixel*Frame) : 0.095
Stream size : 4.24 GiB (99%)
Default : Yes
Forced : No

Audio
ID : 2
Format : AAC
Format/Info : Advanced Audio Codec
Format profile : LC
Codec ID : A_AAC
Duration : 2h 3mn
Bit rate : 48.0 Kbps
Channel(s) : 2 channels
Channel positions : Front: L R
Sampling rate : 48.0 KHz
Frame rate : 46.875 fps (1024 spf)
Compression mode : Lossy
Delay relative to video : 21ms
Stream size : 42.4 MiB (1%)
Default : Yes
Forced : No

Similar torrents

  No similar torrents were found.

  User comments

No comments have been posted yet.


Post anonymous comment
:) :( :D :P :-) B) 8o :? 8) ;) :-* :-( :| O:-D :-@ :o) brb :warn :help :bad :love :idea :bomb :!


CAPTCHA Image