Torrent details for "Taare Zameen Par (2007) Hindi - 720p BluRay - x264 - DD 5.1 - ESubs -Sun George"    Log in to bookmark

Loading...
Loading...
Torrent details
Cover
Download
Torrent rating (0 rated)
Controls:
Category:
Language:
Hindi Hindi
Total Size:
2.04 GB
Info Hash:
8c9fb0b1b0a9504493aaaa97c65c67adffbbcc00
Added By:
Added:  
16-04-2019 08:43
Views:
290
Health:
Seeds:
3
Leechers:
2
Completed:
63

File List (3) : 
Title:
Genre:
Drama, Family
Runtime:
165 min    -    Rating: 8.4
Plot:
Ishaan Awasthi is an eight-year-old child whose world is filled with wonders that no one else seems to appreciate; colours, fish, dogs and kites are just not important in the world of adults, who are much more interested in things like homework, marks and neatness. And Ishaan just cannot seem to get anything right in class. When he gets into far more trouble than his parents can handle, he is packed off to a boarding school to 'be disciplined'. Things are no different at his new school, and Ishaan has to contend with the added trauma of separation from his family. One day a new art teacher bursts onto the scene, Ram Shankar Nikumbh, who infects the students with joy and optimism. He breaks all the rules of 'how things are done' by asking them to think, dream and imagine, and all the children respond with enthusiasm, all except Ishaan. Nikumbh soon realizes that Ishaan is very unhappy, and he sets out to discover why. With time, patience and care, he ultimately helps Ishaan find himself.

Description
Taare Zameen Par (2007) Hindi - 720p BluRay - x264 - DD 5.1 - ESubs -Sun George





https://www.imdb.com/title/tt0986264/






===================================================================

General
Format                                   : Matroska
Format version                           : Version 4
File size                                : 2.03 GiB
Duration                                 : 2 h 42 min
Overall bit rate                         : 1 784 kb/s
Movie name : Taare Zameen Par (2007) Hindi - 720p BluRay - x264 - DD 5.1 - ESubs -Sun George

===================================================================

Video
ID                                       : 1
Format                                   : AVC
Format/Info                              : Advanced Video Codec
Format profile                           : [email protected]
Format settings                          : CABAC / 5 Ref Frames
Format settings, CABAC                   : Yes
Format settings, RefFrames               : 5 frames
Codec ID                                 : V_MPEG4/ISO/AVC
Duration                                 : 2 h 42 min
Bit rate                                 : 1 200 kb/s
Width                                    : 1 280 pixels
Height                                   : 544 pixels
Display aspect ratio                     : 2.35:1
Frame rate mode                          : Constant
Frame rate                               : 23.976 (24000/1001) FPS
Color space                              : YUV
Chroma subsampling                       : 4:2:0
Bit depth                                : 8 bits
Scan type                                : Progressive
Bits/(Pixel*Frame)                       : 0.072
Stream size                              : 1.36 GiB (67%)
Title                                    : Sun George

===================================================================

Audio
Audio #1
ID                                       : 2
Format                                   : AC-3
Format/Info                              : Audio Coding 3
Commercial name                          : Dolby Digital
Codec ID                                 : A_AC3
Duration                                 : 2 h 42 min
Bit rate mode                            : Constant
Bit rate                                 : 384 kb/s
Channel(s)                               : 6 channels
Channel layout                           : L R C LFE Ls Rs
Sampling rate                            : 48.0 kHz
Frame rate                               : 31.250 FPS (1536 SPF)
Bit depth                                : 16 bits
Compression mode                         : Lossy
Delay relative to video                  : 20 ms
Stream size                              : 446 MiB (22%)
Title                                    : Sun George
Language                                 : Hindi
Service kind                             : Complete Main
Default                                  : Yes
Forced                                   : No

Audio #2
ID                                       : 3
Format                                   : AC-3
Format/Info                              : Audio Coding 3
Commercial name                          : Dolby Digital
Codec ID                                 : A_AC3
Duration                                 : 2 h 42 min
Bit rate mode                            : Constant
Bit rate                                 : 192 kb/s
Channel(s)                               : 2 channels
Channel layout                           : L R
Sampling rate                            : 48.0 kHz
Frame rate                               : 31.250 FPS (1536 SPF)
Bit depth                                : 16 bits
Compression mode                         : Lossy
Delay relative to video                  : 40 ms
Stream size                              : 223 MiB (11%)
Title                                    : Sun George
Language                                 : English
Service kind                             : Complete Main
Default                                  : No
Forced                                   : No

Text
ID                                       : 4
Format                                   : PGS
Muxing mode                              : zlib
Codec ID                                 : S_HDMV/PGS
Codec ID/Info                            : Picture based subtitle format used on BDs/HD-DVDs
Duration                                 : 2 h 32 min
Bit rate                                 : 27.5 kb/s
Count of elements                        : 2662
Stream size                              : 30.1 MiB (1%)
Title                                    : Sun George
Language                                 : English
Default                                  : Yes
Forced                                   : Yes






















My Profile on other Sites:



https://1337x.to/user/Sungeorge/


https://www.ettv.tv/user/sungeorge


https://torrentgalaxy.org/profile/sungeorge


https://hon3yhd.net/account-details.php?id=17451


http://katcr.to/user/sungeorge/


https://movcr.tv/user/sungeorge


https://bwt.pw/account-details.php?id=118

Similar torrents

  No similar torrents were found.

  User comments

No comments have been posted yet.


Post anonymous comment
:) :( :D :P :-) B) 8o :? 8) ;) :-* :-( :| O:-D :-@ :facepalm :o) brb :warn :help :bad :love :idea :bomb :!


CAPTCHA Image