Torrent details for "JJ Cale - Audiophile Collection FLAC DR14 vtwin88cube"

Loading...
Torrent details
Cover
Download
Torrent rating (0 rated)
Controls:
Category:
Language:
English English
Total Size:
606.84 MB
Info Hash:
e04af0eb49506d6866ab18ae313a47e9a51471d8
Added By:
Added:  
15-05-2019 19:26
Views:
116
Health:
Seeds:
30
Leechers:
3
Completed:
562

File List : 

Description
foobar2000 1.4.3 / Dynamic Range Meter 1.1.1
log date: 2019-05-15 09:50:31

--------------------------------------------------------------------------------
Analyzed: J.J. Cale / Audiophile Collection
--------------------------------------------------------------------------------

DR         Peak         RMS     Duration Track

--------------------------------------------------------------------------------
DR13      -1.82 dB   -16.20 dB      2:40 01-Call Me The Breeze
DR13      -0.86 dB   -17.50 dB      2:37 02-Crying
DR13       0.00 dB   -15.39 dB      3:23 03-Hey Baby
DR14      -2.54 dB   -18.15 dB      2:28 04-Call The Doctor
DR13      -1.89 dB   -17.94 dB      2:29 05-Crazy Mama
DR15      -0.99 dB   -19.68 dB      2:25 06-Don't Go To Strangers
DR13      -0.11 dB   -14.39 dB      2:08 07-Rock And Roll Records
DR13      -1.47 dB   -16.27 dB      2:39 08-Woman I Love
DR14       0.00 dB   -16.04 dB      2:56 09-Lies
DR13      -1.68 dB   -16.90 dB      3:07 10-Like You Used To
DR15      -3.39 dB   -20.56 dB      3:25 11-Magnolia
DR13      -0.02 dB   -14.76 dB      4:18 12-Borrowed Time
DR13      -0.76 dB   -16.28 dB      2:33 13-Clyde
DR13      -1.28 dB   -16.74 dB      2:10 14-Everlovin' Woman
DR15       0.00 dB   -16.88 dB      4:24 15-Midnight In Memphis
DR13      -0.10 dB   -14.89 dB      2:19 16-Cajun Moon
DR13      -1.93 dB   -16.51 dB      3:06 17-Rose In The Garden
DR13      -0.61 dB   -15.96 dB      2:28 18-Nowhere To Run
DR15      -1.71 dB   -19.44 dB      2:27 19-After Midnight
DR13      -0.10 dB   -15.61 dB      3:24 20-Anyway The Wind Blows
DR13      -0.76 dB   -16.25 dB      3:17 21-Hey Baby
DR14       0.00 dB   -15.49 dB      3:04 22-Let Me Do It To You
DR13      -2.55 dB   -17.37 dB      2:43 23-River Runs Deep
DR14       0.00 dB   -16.70 dB      3:33 24-Cherry
DR13      -0.95 dB   -16.98 dB      2:53 25-Closer To You
DR14       0.00 dB   -15.86 dB      3:10 26-I'll Make Love To You Anytime
DR14      -0.28 dB   -17.60 dB      2:12 27-Don't Cry Sister
DR14      -0.10 dB   -15.96 dB      2:58 28-I Got The Same Old Blues
DR13      -2.11 dB   -17.33 dB      2:48 29-Thirteen Days
DR14      -0.99 dB   -16.49 dB      5:06 30-Sensitive Kind
DR15      -0.06 dB   -17.69 dB      2:20 31-Carry On
DR15       0.00 dB   -16.93 dB      3:50 32-Mama Don't
DR14       0.00 dB   -17.31 dB      2:48 33-City Girls
DR16       0.00 dB   -17.41 dB      3:08 34-Don't Wait
DR16       0.00 dB   -17.75 dB      4:18 35-Money Talks
--------------------------------------------------------------------------------

Number of tracks:  35
Official DR value: DR14

Samplerate:        44100 Hz
Channels:          2
Bits per sample:   16
Bitrate:           794 kbps
Codec:             FLAC

============================================================================

====







Thanks 4 Seeding!
Cheers!
88

Similar torrents

  No similar torrents were found.

  User comments

No comments have been posted yet.


Post anonymous comment
:) :( :D :P :-) B) 8o :? 8) ;) :-* :-( :| O:-D :-@ :o) brb :warn :help :bad :love :idea :bomb :!


CAPTCHA Image