Torrent details for "Mohan Vadani (2016) 720p HDTV Hindi Dubbed x264 AAC.-.LHDm"

Loading...
Torrent details
Cover
Download
Torrent rating (0 rated)
Controls:
Category:
Language:
Hindi Hindi
Total Size:
1.08 GB
Info Hash:
d237d3a098a39ca381cb0072b9470062eaedea6d
Added By:
Added:  
13-06-2019 06:26 (edited 13-06-2019 06:26) by LatestHDMovies:_trusted_uploader::_male:
Views:
196
Health:
Seeds:
9
Leechers:
2
Completed:
328

File List (1) : 
Title:
Mo (2016)
Genre:
Comedy, Horror
Runtime:
136 min    -    Rating: 6
Plot:
Dev, Sathish and Kumar are con-men who enjoy making money by deceiving people in different ways. Knowing that exploiting others' fear of the unknown is one of the best ways to survive, they team up with aspiring actress Priya and makeup man Joseph Chellappa to become fake shamans. After successfully performing a fake exorcism, their new career takes off. But their lives are put in danger when one of them gets possessed by a real spirit.

Description





General
Unique ID                   : 305204252129481066221146497515429838366 (0xE59C3369CB6CD979D4EBE69D1F403E1E)
Complete name               : C:\Users\Administrator\Downloads\Video\[LatestHDmovies.Club]-Mohan Vadani (2016) 720p HDTV Hindi x264 AAC.mkv
Format                      : Matroska
Format version              : Version 4
File size                   : 1.08 GiB
Duration                    : 2 h 4 min
Overall bit rate            : 1 243 kb/s
Movie name                  : www.LatestHDmovies.Club
Encoded date                : UTC 2019-06-12 23:49:16
Writing application         : mkvmerge v32.0.0 ('Astral Progressions') 32-bit
Writing library             : libebml v1.3.7 + libmatroska v1.5.0

Video
ID                          : 1
Format                      : AVC
Format/Info                 : Advanced Video Codec
Format profile              : [email protected]
Format settings             : CABAC / 4 Ref Frames
Format settings, CABAC      : Yes
Format settings, ReFrames   : 4 frames
Codec ID                    : V_MPEG4/ISO/AVC
Duration                    : 2 h 4 min
Bit rate                    : 1 144 kb/s
Width                       : 1 274 pixels
Height                      : 720 pixels
Display aspect ratio        : 16:9
Frame rate mode             : Constant
Frame rate                  : 25.000 FPS
Color space                 : YUV
Chroma subsampling          : 4:2:0
Bit depth                   : 8 bits
Scan type                   : Progressive
Bits/(Pixel*Frame)          : 0.050
Stream size                 : 1 021 MiB (92%)
Title                       : LatestHDmovies.Club
Writing library             : x264 core 157
Encoding settings           : cabac=1 / ref=1 / deblock=1:0:0 / analyse=0x3:0x3 / me=dia / subme=1 / psy=1 / psy_rd=1.00:0.00 / mixed_ref=0 / me_range=16 / chroma_me=1 / trellis=0 / 8x8dct=1 / cqm=0 / deadzone=21,11 / fast_pskip=1 / chroma_qp_offset=0 / threads=22 / lookahead_threads=3 / sliced_threads=0 / nr=0 / decimate=1 / interlaced=0 / bluray_compat=0 / constrained_intra=0 / bframes=3 / b_pyramid=2 / b_adapt=1 / b_bias=0 / direct=1 / weightb=1 / open_gop=0 / weightp=1 / keyint=250 / keyint_min=25 / scenecut=40 / intra_refresh=0 / rc=abr / mbtree=0 / bitrate=1144 / ratetol=1.0 / qcomp=0.60 / qpmin=0 / qpmax=69 / qpstep=4 / ip_ratio=1.40 / pb_ratio=1.30 / aq=1:1.00
Default                     : Yes
Forced                      : No

Audio
ID                          : 2
Format                      : AAC LC
Format/Info                 : Advanced Audio Codec Low Complexity
Codec ID                    : A_AAC-2
Duration                    : 2 h 4 min
Bit rate                    : 96.0 kb/s
Channel(s)                  : 1 channel
Channel layout              : C
Sampling rate               : 44.1 kHz
Frame rate                  : 43.066 FPS (1024 SPF)
Compression mode            : Lossy
Delay relative to video     : -30 ms
Stream size                 : 85.5 MiB (8%)
Title                       : LatestHDmovies.Club
Default                     : Yes
Forced                      : No















Similar torrents

Name 
DL
Uploader
Size 
S/L 
Added

  User comments

No comments have been posted yet.


Post anonymous comment
:) :( :D :P :-) B) 8o :? 8) ;) :-* :-( :| O:-D :-@ :facepalm :o) brb :warn :help :bad :love :idea :bomb :!


CAPTCHA Image